Конференция iXBT.com » Цифровое видео: захват, монтаж, обработка »
Несколько вопросов по Sony Vegas (часть 3) (Страница 1)
Метки: редактирование
Страницы: 1 2 3 4 5 6 25 26 27 · далееверсия для печати
badidea: Несколько вопросов по Sony Vegas (часть 3)
Статья про ВегасКураторы темы: Voldemar_d
badidea
unregistered92||
badidea написано 27.03.2018 19:52

(Это продолжение предыдущей темы)

ALEXX73
Member

Ответов: 37/44
ALEXX73 написано 27.03.2018 19:52

Kisa_AG
Предупреждать надо, что у тебя не современный квадратный пиксел, а прямоугольный.
Добрый вечер! Я, в своё время захват делал разными прогами, может быть ,чего-нибудь и накосячил. В данном, конкретном случае на входе:
[spoiler=info1]Общее Полное имя : F:\ulead\дек 2006-2007 исходник\UVS150405-001-60.avi Формат : AVI Формат/Информация : Audio Video Interleave Коммерческое название : DVCPRO Размер файла : 623 Мбайт Продолжительность : 3 м. 1 с. Режим общего битрейта : Постоянный Общий поток : 28,8 Мбит/сек Дата записи : 2007-09-18 18:55:27.000 Видео Идентификатор : 0 Формат : DV Коммерческое название : DVCPRO Продолжительность : 3 м. 1 с. Вид битрейта : Постоянный Битрейт : 24,4 Мбит/сек Закодированный битрейт : 28,8 Мбит/сек Ширина : 720 пикселей Высота : 576 пикселей Соотношение сторон : 5:4 Режим частоты кадров : Постоянный Частота кадров : 25,000 кадров/сек Стандарт вещания : PAL Субдискретизация насыщенности : 4:2:0 Битовая глубина : 8 бит Тип развёртки : Чересстрочная Порядок развёртки : Нижнее поле первое Метод сжатия : С потерями Бит/(Пиксели*Кадры) : 2.357 Временной код первого кадра : 01:12:27:23 Оригинал временного кода : Subcode time code Размер потока : 623 Мбайт (100%) Аудио Идентификатор : 0-0 Формат : PCM Режим смешивания : DV Режим смешивания, доп. информация : Muxed in Video #1 Продолжительность : 3 м. 1 с. Вид битрейта : Постоянный Битрейт : 1536 Кбит/сек Закодированный битрейт : 0 бит/сек Каналы : 2 канала Частота : 48,0 КГц Битовая глубина : 16 бит Размер потока : 33,2 Мбайт (5%) Закодированный размер потока : 0,00 байт (0%)[/spoiler]
Cо строкой --ref 8 --bframes 5 --keyint 150 --sar 12:11,
получается:
[spoiler=info2]Общее Формат : Matroska Версия формата : Version 2 Размер файла : 88,8 Мбайт Продолжительность : 2 м. 7 с. Общий поток : 5849 Кбит/сек Программа кодирования : x264 r2901 7d0ff22 Библиотека кодирования : Haali Matroska Writer b0 Видео Идентификатор : 1 Формат : AVC Формат/Информация : Advanced Video Codec Профиль формата : High@L3.1 Настройки формата : CABAC / 8 Ref Frames Параметр CABAC формата : Да Параметр RefFrames формата : 8 кадров Идентификатор кодека : V_MPEG4/ISO/AVC Продолжительность : 2 м. 7 с. Битрейт : 5733 Кбит/сек Ширина : 720 пикселей Высота : 576 пикселей Соотношение сторон : 4:3 Соотношение сторон в оригинале : 4:3 Режим частоты кадров : Постоянный Частота кадров : 25,000 кадров/сек Стандарт вещания : PAL Цветовое пространство : YUV Субдискретизация насыщенности : 4:2:0 Битовая глубина : 8 бит Тип развёртки : Прогрессивная Бит/(Пиксели*Кадры) : 0.553 Размер потока : 87,0 Мбайт (98%) Библиотека кодирования : x264 core 155 r2901 7d0ff22 Настройки программы : cabac=1 / ref=8 / deblock=1:-1:-1 / analyse=0x3:0x133 / me=umh / subme=10 / psy=1 / psy_rd=1.00:0.15 / mixed_ref=1 / me_range=24 / chroma_me=1 / trellis=2 / 8x8dct=1 / cqm=0 / deadzone=21,11 / fast_pskip=1 / chroma_qp_offset=-3 / threads=6 / lookahead_threads=1 / sliced_threads=0 / nr=0 / decimate=1 / interlaced=0 / bluray_compat=0 / constrained_intra=0 / bframes=5 / b_pyramid=2 / b_adapt=2 / b_bias=0 / direct=3 / weightb=1 / open_gop=0 / weightp=2 / keyint=150 / keyint_min=15 / scenecut=40 / intra_refresh=0 / rc_lookahead=60 / rc=crf / mbtree=1 / crf=17.0 / qcomp=0.60 / qpmin=0 / qpmax=69 / qpstep=4 / ip_ratio=1.40 / aq=1:1.00 Язык : English Default : Да Forced : Нет[/spoiler]
И, опять progressiv, и гребёнка.
[spoiler=лог][2018-03-27][19:52:41] Simple x264 Launcher (Build #1124), built 2018-02-27 [2018-03-27][19:52:41] [2018-03-27][19:52:41] Job started at 2018-03-27, 19:52:41. [2018-03-27][19:52:41] [2018-03-27][19:52:41] Source file : E:\sony 2018\karate4.avi [2018-03-27][19:52:41] Output file : F:\ulead\дек 2006-2007 исходник\karate4.mkv [2018-03-27][19:52:41] [2018-03-27][19:52:41] --- SYSTEMINFO --- [2018-03-27][19:52:41] [2018-03-27][19:52:41] Binary Path : C:\Program Files (x86)\MuldeR\Simple x264 Launcher v2 [2018-03-27][19:52:41] Avisynth : Yes [2018-03-27][19:52:41] VapourSynth : No [2018-03-27][19:52:41] [2018-03-27][19:52:41] --- SETTINGS --- [2018-03-27][19:52:41] [2018-03-27][19:52:41] Encoder : x264 (AVC/H.264), 32-Bit (x86), 8-Bit [2018-03-27][19:52:41] Source : Native [2018-03-27][19:52:41] RC Mode : CRF [2018-03-27][19:52:41] Preset : veryslow [2018-03-27][19:52:41] Tuning : Film [2018-03-27][19:52:41] Profile : <Unrestricted> [2018-03-27][19:52:41] Custom : --ref 8 --bframes 5 --keyint 150 --sar 12:11 [2018-03-27][19:52:41] [2018-03-27][19:52:41] --- CHECK VERSION --- [2018-03-27][19:52:41] [2018-03-27][19:52:41] Detect video encoder version: [2018-03-27][19:52:41] [2018-03-27][19:52:41] Creating process: [2018-03-27][19:52:41] "C:\Program Files (x86)\MuldeR\Simple x264 Launcher v2\toolset\x86\x264_x86.exe" --version [2018-03-27][19:52:41] [2018-03-27][19:52:41] x264 0.155.2901 7d0ff22 [2018-03-27][19:52:41] (libswscale 5.0.101) [2018-03-27][19:52:41] (libavformat 58.10.100) [2018-03-27][19:52:41] (ffmpegsource 2.30.0.0) [2018-03-27][19:52:41] built on Feb 26 2018, gcc: 7.3.0 [2018-03-27][19:52:41] x264 configuration: --chroma-format=all [2018-03-27][19:52:41] libx264 configuration: --chroma-format=all [2018-03-27][19:52:41] x264 license: GPL version 2 or later [2018-03-27][19:52:41] libswscale/libavformat/ffmpegsource license: GPL version 2 or later [2018-03-27][19:52:41] [2018-03-27][19:52:41] > x264 revision: 2901 (core #155) [2018-03-27][19:52:41] [2018-03-27][19:52:41] --- ENCODING VIDEO --- [2018-03-27][19:52:41] [2018-03-27][19:52:41] Creating encoder process: [2018-03-27][19:52:41] "C:\Program Files (x86)\MuldeR\Simple x264 Launcher v2\toolset\x86\x264_x86.exe" --output-depth 8 --crf 17.0 --preset veryslow --tune film --ref 8 --bframes 5 --keyint 150 --sar 12:11 --output "F:\ulead\дек 2006-2007 исходник\karate4.mkv" --index C:\Users\Alex\AppData\Local\Temp\~d84330d6566128dad455.ffindex "E:\sony 2018\karate4.avi" [2018-03-27][19:52:41] [2018-03-27][19:52:47] ffms [error]: could not create video source [2018-03-27][19:52:47] avs [info]: trying AVISource... succeeded [2018-03-27][19:52:47] avs [info]: 720x576p 12:11 @ 25/1 fps (cfr) [2018-03-27][19:52:47] resize [warning]: converting from yuyv422 to yuv422p [2018-03-27][19:52:47] resize [warning]: converting from yuv422p to yuv420p [2018-03-27][19:52:47] x264 [info]: using SAR=12/11 [2018-03-27][19:52:47] x264 [info]: using cpu capabilities: MMX2 SSE2Fast SSSE3 SSE4.2 [2018-03-27][19:52:47] x264 [info]: profile High, level 3.1 [2018-03-27][20:04:41] x264 [info]: frame I:24 Avg QP:14.79 size: 68297 [2018-03-27][20:04:41] x264 [info]: frame P:724 Avg QP:19.24 size: 45170 [2018-03-27][20:04:41] x264 [info]: frame B:2435 Avg QP:21.99 size: 24116 [2018-03-27][20:04:41] x264 [info]: consecutive B-frames: 1.6% 2.6% 8.8% 28.3% 24.8% 33.9% [2018-03-27][20:04:41] x264 [info]: mb I I16..4: 29.0% 52.5% 18.5% [2018-03-27][20:04:41] x264 [info]: mb P I16..4: 2.8% 14.3% 6.9% P16..4: 19.6% 19.5% 13.4% 2.4% 0.5% skip:20.6% [2018-03-27][20:04:41] x264 [info]: mb B I16..4: 0.8% 1.8% 1.2% B16..8: 29.2% 18.8% 6.4% direct:16.9% skip:24.9% L0:46.0% L1:26.6% BI:27.4% [2018-03-27][20:04:41] x264 [info]: 8x8 transform intra:54.9% inter:47.4% [2018-03-27][20:04:41] x264 [info]: direct mvs spatial:97.7% temporal:2.3% [2018-03-27][20:04:41] x264 [info]: coded y,uvDC,uvAC intra: 85.8% 73.5% 25.3% inter: 53.6% 44.6% 2.8% [2018-03-27][20:04:41] x264 [info]: i16 v,h,dc,p: 26% 64% 5% 5% [2018-03-27][20:04:41] x264 [info]: i8 v,h,dc,ddl,ddr,vr,hd,vl,hu: 15% 21% 15% 5% 7% 8% 7% 8% 12% [2018-03-27][20:04:41] x264 [info]: i4 v,h,dc,ddl,ddr,vr,hd,vl,hu: 5% 52% 5% 4% 6% 5% 6% 5% 9% [2018-03-27][20:04:41] x264 [info]: i8c dc,h,v,p: 27% 50% 13% 10% [2018-03-27][20:04:41] x264 [info]: Weighted P-Frames: Y:10.8% UV:6.5% [2018-03-27][20:04:41] x264 [info]: ref P L0: 35.6% 12.7% 17.6% 10.4% 7.9% 6.3% 5.3% 3.8% 0.3% [2018-03-27][20:04:41] x264 [info]: ref B L0: 56.6% 18.2% 10.3% 6.3% 4.7% 3.0% 1.0% [2018-03-27][20:04:41] x264 [info]: ref B L1: 91.3% 8.7% [2018-03-27][20:04:41] x264 [info]: kb/s:5847.59 [2018-03-27][20:04:41] encoded 3183 frames, 4.43 fps, 5847.63 kb/s [2018-03-27][20:04:41] Final file size is 88.8 MB bytes. [2018-03-27][20:04:41] [2018-03-27][20:04:41] --- COMPLETED --- [2018-03-27][20:04:41] [2018-03-27][20:04:41] Job finished at 2018-03-27, 20:04:41. Process took 12 minutes, 0 seconds.[/spoiler]
Вот скрины, 1 mpeg2, 2 x264. Картинка 16:9 - в камере (panasonic ds65) опция - в кадре 4:3 обрезается верх и низ.
Фу, упрел, пока составлял.

Kisa_AG
Member

Ответов: 4728/6984
Фотоальбом: 2 фото
Kisa_AG написано 28.03.2018 14:18

ALEXX73
Елы-палы, там еще и интерлэйс... Тогда сначала определись, что нужно получить на выходе - интерлэйс или прогрессив.
Попробуй для начала Вегасовский прогрессив 50р. Для этого поставь в свойствах проекта частоту кадров 50р (дабл ПАЛ) и тип деинтерлэйса - Interpolate fields. И выведи еще раз.

ALEXX73
Member

Ответов: 38/45
ALEXX73 написано 28.03.2018 20:55

Kisa_AG
И выведи еще раз.
Вывел.
[spoiler=лог 50p][2018-03-28][21:00:34] Simple x264 Launcher (Build #1124), built 2018-02-27 [2018-03-28][21:00:34] [2018-03-28][21:00:34] Job started at 2018-03-28, 21:00:34. [2018-03-28][21:00:34] [2018-03-28][21:00:34] Source file : E:\sony 2018\karate7.avi [2018-03-28][21:00:34] Output file : F:\ulead\дек 2006-2007 исходник\karate7.mkv [2018-03-28][21:00:34] [2018-03-28][21:00:34] --- SYSTEMINFO --- [2018-03-28][21:00:34] [2018-03-28][21:00:34] Binary Path : C:\Program Files (x86)\MuldeR\Simple x264 Launcher v2 [2018-03-28][21:00:34] Avisynth : Yes [2018-03-28][21:00:34] VapourSynth : No [2018-03-28][21:00:34] [2018-03-28][21:00:34] --- SETTINGS --- [2018-03-28][21:00:34] [2018-03-28][21:00:34] Encoder : x264 (AVC/H.264), 32-Bit (x86), 8-Bit [2018-03-28][21:00:34] Source : Native [2018-03-28][21:00:34] RC Mode : CRF [2018-03-28][21:00:34] Preset : veryslow [2018-03-28][21:00:34] Tuning : Film [2018-03-28][21:00:34] Profile : <Unrestricted> [2018-03-28][21:00:34] Custom : --ref 8 --bframes 5 --keyint 150 --sar 12:11 [2018-03-28][21:00:34] [2018-03-28][21:00:34] --- CHECK VERSION --- [2018-03-28][21:00:34] [2018-03-28][21:00:34] Detect video encoder version: [2018-03-28][21:00:34] [2018-03-28][21:00:34] Creating process: [2018-03-28][21:00:34] "C:\Program Files (x86)\MuldeR\Simple x264 Launcher v2\toolset\x86\x264_x86.exe" --version [2018-03-28][21:00:34] [2018-03-28][21:00:34] x264 0.155.2901 7d0ff22 [2018-03-28][21:00:34] (libswscale 5.0.101) [2018-03-28][21:00:34] (libavformat 58.10.100) [2018-03-28][21:00:34] (ffmpegsource 2.30.0.0) [2018-03-28][21:00:34] built on Feb 26 2018, gcc: 7.3.0 [2018-03-28][21:00:34] x264 configuration: --chroma-format=all [2018-03-28][21:00:34] libx264 configuration: --chroma-format=all [2018-03-28][21:00:34] x264 license: GPL version 2 or later [2018-03-28][21:00:34] libswscale/libavformat/ffmpegsource license: GPL version 2 or later [2018-03-28][21:00:34] [2018-03-28][21:00:34] > x264 revision: 2901 (core #155) [2018-03-28][21:00:34] [2018-03-28][21:00:34] --- ENCODING VIDEO --- [2018-03-28][21:00:34] [2018-03-28][21:00:34] Creating encoder process: [2018-03-28][21:00:34] "C:\Program Files (x86)\MuldeR\Simple x264 Launcher v2\toolset\x86\x264_x86.exe" --output-depth 8 --crf 17.0 --preset veryslow --tune film --ref 8 --bframes 5 --keyint 150 --sar 12:11 --output "F:\ulead\дек 2006-2007 исходник\karate7.mkv" --index C:\Users\Alex\AppData\Local\Temp\~e4f553eb491508bdf298.ffindex "E:\sony 2018\karate7.avi" [2018-03-28][21:00:34] [2018-03-28][21:00:40] ffms [error]: could not create video source [2018-03-28][21:00:40] avs [info]: trying AVISource... succeeded [2018-03-28][21:00:40] avs [info]: 720x576p 12:11 @ 50/1 fps (cfr) [2018-03-28][21:00:40] resize [warning]: converting from yuyv422 to yuv422p [2018-03-28][21:00:40] resize [warning]: converting from yuv422p to yuv420p [2018-03-28][21:00:40] x264 [info]: using SAR=12/11 [2018-03-28][21:00:40] x264 [info]: using cpu capabilities: MMX2 SSE2Fast SSSE3 SSE4.2 [2018-03-28][21:00:40] x264 [info]: profile High, level 3.1 [2018-03-28][21:03:04] x264 [info]: frame I:7 Avg QP:15.58 size: 35651 [2018-03-28][21:03:04] x264 [info]: frame P:211 Avg QP:21.57 size: 20665 [2018-03-28][21:03:04] x264 [info]: frame B:782 Avg QP:24.11 size: 10035 [2018-03-28][21:03:04] x264 [info]: consecutive B-frames: 1.7% 3.0% 2.7% 21.2% 15.0% 56.4% [2018-03-28][21:03:04] x264 [info]: mb I I16..4: 41.3% 42.8% 15.9% [2018-03-28][21:03:04] x264 [info]: mb P I16..4: 5.1% 7.6% 3.9% P16..4: 35.5% 17.0% 9.2% 0.9% 0.2% skip:20.6% [2018-03-28][21:03:04] x264 [info]: mb B I16..4: 1.8% 0.5% 0.8% B16..8: 33.6% 11.2% 3.1% direct:14.9% skip:33.9% L0:49.4% L1:33.1% BI:17.6% [2018-03-28][21:03:04] x264 [info]: 8x8 transform intra:34.6% inter:62.6% [2018-03-28][21:03:04] x264 [info]: direct mvs spatial:99.6% temporal:0.4% [2018-03-28][21:03:04] x264 [info]: coded y,uvDC,uvAC intra: 63.6% 50.8% 13.3% inter: 32.3% 30.2% 1.8% [2018-03-28][21:03:04] x264 [info]: i16 v,h,dc,p: 21% 74% 2% 2% [2018-03-28][21:03:04] x264 [info]: i8 v,h,dc,ddl,ddr,vr,hd,vl,hu: 13% 25% 13% 6% 8% 8% 8% 8% 12% [2018-03-28][21:03:04] x264 [info]: i4 v,h,dc,ddl,ddr,vr,hd,vl,hu: 4% 67% 5% 2% 4% 3% 5% 3% 7% [2018-03-28][21:03:04] x264 [info]: i8c dc,h,v,p: 22% 64% 7% 7% [2018-03-28][21:03:04] x264 [info]: Weighted P-Frames: Y:17.1% UV:11.4% [2018-03-28][21:03:04] x264 [info]: ref P L0: 44.3% 11.5% 14.8% 9.3% 6.6% 5.3% 4.7% 3.0% 0.5% 0.0% [2018-03-28][21:03:04] x264 [info]: ref B L0: 62.2% 16.1% 8.3% 5.3% 4.5% 2.6% 1.0% [2018-03-28][21:03:04] x264 [info]: ref B L1: 91.0% 9.0% [2018-03-28][21:03:04] x264 [info]: kb/s:4982.99 [2018-03-28][21:03:04] encoded 1000 frames, 6.74 fps, 4983.28 kb/s [2018-03-28][21:03:04] Final file size is 11.9 MB bytes. [2018-03-28][21:03:04] [2018-03-28][21:03:04] --- COMPLETED --- [2018-03-28][21:03:04] [2018-03-28][21:03:04] Job finished at 2018-03-28, 21:03:04. Process took 2 minutes, 29 seconds.[/spoiler]

[spoiler=info 50]Общее Полное имя : Формат : Matroska Версия формата : Version 2 Размер файла : 11,9 Мбайт Продолжительность : 20 с. 0 мс. Общий поток : 4986 Кбит/сек Программа кодирования : x264 r2901 7d0ff22 Библиотека кодирования : Haali Matroska Writer b0 Видео Идентификатор : 1 Формат : AVC Формат/Информация : Advanced Video Codec Профиль формата : High@L3.1 Настройки формата : CABAC / 8 Ref Frames Параметр CABAC формата : Да Параметр RefFrames формата : 8 кадров Идентификатор кодека : V_MPEG4/ISO/AVC Продолжительность : 20 с. 0 мс. Битрейт : 4887 Кбит/сек Ширина : 720 пикселей Высота : 576 пикселей Соотношение сторон : 4:3 Соотношение сторон в оригинале : 4:3 Режим частоты кадров : Постоянный Частота кадров : 50,000 кадров/сек Цветовое пространство : YUV Субдискретизация насыщенности : 4:2:0 Битовая глубина : 8 бит Тип развёртки : Прогрессивная Бит/(Пиксели*Кадры) : 0.236 Размер потока : 11,7 Мбайт (98%) Библиотека кодирования : x264 core 155 r2901 7d0ff22 Настройки программы : cabac=1 / ref=8 / deblock=1:-1:-1 / analyse=0x3:0x133 / me=umh / subme=10 / psy=1 / psy_rd=1.00:0.15 / mixed_ref=1 / me_range=24 / chroma_me=1 / trellis=2 / 8x8dct=1 / cqm=0 / deadzone=21,11 / fast_pskip=1 / chroma_qp_offset=-3 / threads=6 / lookahead_threads=1 / sliced_threads=0 / nr=0 / decimate=1 / interlaced=0 / bluray_compat=0 / constrained_intra=0 / bframes=5 / b_pyramid=2 / b_adapt=2 / b_bias=0 / direct=3 / weightb=1 / open_gop=0 / weightp=2 / keyint=150 / keyint_min=15 / scenecut=40 / intra_refresh=0 / rc_lookahead=60 / rc=crf / mbtree=1 / crf=17.0 / qcomp=0.60 / qpmin=0 / qpmax=69 / qpstep=4 / ip_ratio=1.40 / aq=1:1.00 Язык : English Default : Да Forced : Нет[/spoiler]
Настройки, скрин.
Что-то битрейт маловат, по моему. И ступеньки опять.
Почему в этой связке, при любых настройках, вылезает прогрессив? А если как я делал раньше, чез mpeg, интерлейс остаётся ?

Kisa_AG
Member

Ответов: 4729/6985
Фотоальбом: 2 фото
Kisa_AG написано 28.03.2018 21:59

ALEXX73
Говорю же - в свойствах проекта прогрессив поставь, чтобы вегас сделал деинтерлэйс. А у тебя так и осталось стоять lower field first.

ALEXX73
Member

Ответов: 39/46
ALEXX73 написано 29.03.2018 15:56

Kisa_AG
чтобы вегас сделал деинтерлэйс.
Пропустил. Поставлю.
И, всё-таки Почему в этой связке, при любых настройках, вылезает прогрессив?

Kisa_AG
Member

Ответов: 4730/6986
Фотоальбом: 2 фото
Kisa_AG написано 29.03.2018 16:27

ALEXX73
И, всё-таки Почему в этой связке, при любых настройках, вылезает прогрессив?

Потому что по умолчанию х264 расценивает ЛЮБОЙ вход как прогрессив. И кодирует его тоже в прогрессиве.
ЧТобы закодировать в нем интерлэйс надо ему про это сказать, вставив в строку --bff (если у тебя bottom field first, Нижнее поле первое, для DV это так. Eсли же top, верхнее, то --tff).
Вот так, например: --ref 8 --bframes 5 --keyint 150 --bff --sar 12:11.

ALEXX73
Member

Ответов: 40/47
ALEXX73 написано 29.03.2018 19:09

Понял. Где посмотреть можно список команд?
С гребёнкой, вроде справились. Стало, наконец-то проясняться куда копать. Битрейт надо увеличить - до 9000-10000? Подбирать параметр QUANT?
[spoiler=info]Общее Полное имя : Формат : Matroska Версия формата : Version 2 Размер файла : 22,1 Мбайт Продолжительность : 39 с. 800 мс. Общий поток : 4648 Кбит/сек Программа кодирования : x264 r2901 7d0ff22 Библиотека кодирования : Haali Matroska Writer b0 Видео Идентификатор : 1 Формат : AVC Формат/Информация : Advanced Video Codec Профиль формата : High@L3.1 Настройки формата : CABAC / 8 Ref Frames Параметр CABAC формата : Да Параметр RefFrames формата : 8 кадров Идентификатор кодека : V_MPEG4/ISO/AVC Продолжительность : 39 с. 800 мс. Битрейт : 4555 Кбит/сек Ширина : 720 пикселей Высота : 576 пикселей Соотношение сторон : 4:3 Соотношение сторон в оригинале : 4:3 Режим частоты кадров : Постоянный Частота кадров : 50,000 кадров/сек Цветовое пространство : YUV Субдискретизация насыщенности : 4:2:0 Битовая глубина : 8 бит Тип развёртки : Прогрессивная Бит/(Пиксели*Кадры) : 0.220 Размер потока : 21,6 Мбайт (98%) Библиотека кодирования : x264 core 155 r2901 7d0ff22 Настройки программы : cabac=1 / ref=8 / deblock=1:-1:-1 / analyse=0x3:0x133 / me=umh / subme=10 / psy=1 / psy_rd=1.00:0.15 / mixed_ref=1 / me_range=24 / chroma_me=1 / trellis=2 / 8x8dct=1 / cqm=0 / deadzone=21,11 / fast_pskip=1 / chroma_qp_offset=-3 / threads=6 / lookahead_threads=1 / sliced_threads=0 / nr=0 / decimate=1 / interlaced=0 / bluray_compat=0 / constrained_intra=0 / bframes=5 / b_pyramid=2 / b_adapt=2 / b_bias=0 / direct=3 / weightb=1 / open_gop=0 / weightp=2 / keyint=150 / keyint_min=15 / scenecut=40 / intra_refresh=0 / rc_lookahead=60 / rc=crf / mbtree=1 / crf=17.0 / qcomp=0.60 / qpmin=0 / qpmax=69 / qpstep=4 / ip_ratio=1.40 / aq=1:1.00 Язык : English Default : Да Forced : Нет[/spoiler]
И по железу. Покупка карты 1050 и памяти, гига 4, добавит скорости?

Kisa_AG
Member

Ответов: 4731/6987
Фотоальбом: 2 фото
Kisa_AG написано 29.03.2018 20:39

ALEXX73
Где посмотреть можно список команд?

http://www.chaneru.com/Roku/HLS/X264_Settings.htm
x264.exe --fullhelp >fullhelp.txt

Битрейт надо увеличить - до 9000-10000? Подбирать параметр QUANT?

Нафига?

Добавление от 29.03.2018 20:40:

ALEXX73
И по железу. Покупка карты 1050 и памяти, гига 4, добавит скорости?

Для х264 - нет. Но если использовать nvenc, то да. Но качество припадет.

ALEXX73
Member

Ответов: 41/48
ALEXX73 написано 29.03.2018 21:29

Kisa_AG
Нафига?
Спасибо большое! Действительно, поставил 10, получилось 15000, загрузил в Ps- разницы нет.
При хорошем железе рабочий и качественный вариант для моей задачи. (СОХРАНЕНИЕ ФАЙЛОВ С DV)

Для х264 - нет
Значит кардинально надо расти.
Ещё раз спасибо.

Kisa_AG
Member

Ответов: 4732/6988
Фотоальбом: 2 фото
Kisa_AG написано 30.03.2018 12:50

ALEXX73
рабочий и качественный вариант для моей задачи. (СОХРАНЕНИЕ ФАЙЛОВ С DV)

Если надо просто сохранять, то зачем возиться? Пусть в исходниках и хранятся. По нынешним временам это не такие уж большие объемы.
Все эти пляски с деинтерлэйсом/чисткой/пережимом чтобы смотреть удобно было.

ALEXX73
Member

Ответов: 42/49
ALEXX73 написано 30.03.2018 14:50

Kisa_AG
чтобы смотреть удобно было.
Ну да. Я смотрю с NAS. Медиаплеер и телевизор не читает DV.
Ещё для избавления от брака всякого. А так, я все красивости уже перерос - монтирую с секундным перекрытием в авто. Заголовок и дата в названии файла.

ALEXX73
Member

Ответов: 43/50
ALEXX73 написано 03.04.2018 20:59

Kisa_AG
Для х264 - нет.
Если начинать собирать комп, не навороченный, какую видюху брать,с поддержкой CUDA? Пока её поставлю, для игр сыну, в свой комп.

slon
Member

Ответов: 5290/17198
Откуда: Россия, Санкт-Петербург
Фотоальбом: 111 фото
slon написано 03.04.2018 21:20

ALEXX73
какую видюху брать,с поддержкой CUDA?
CUDA уже устарела, сейчас вместо нее NVENC. Это если говорить о скорости рендеринга. Для работы на таймлайн рекомендуют Radeon с OpenCL. Подробнее здесь http://www.efxi.ru/more/vegas_pro.html

Kisa_AG
Member

Ответов: 4736/6992
Фотоальбом: 2 фото
Kisa_AG написано 04.04.2018 11:17

ALEXX73
какую видюху брать

Затрудняюсь сказать.
У меня сейчас 1050Ti (брал где то баксов за 180 еще до всей этой бодяги с биткоинами). С моим не самым новым монтажным железом (i7 9xx) ее установка просто на голову улучшила монтаж. Для рендеринга ее NVENC не использую - только x264, только хардкор , что бы там slon ни говорил про ренедеринг ущербными родными средствами Вегаса .
Монтаж вроде вполне неплохо ускоряет даже встроенный Intel Graphics, если хочется сэкономить, то можно попробовать.

slon
Member

Ответов: 5291/17200
Откуда: Россия, Санкт-Петербург
Фотоальбом: 111 фото
slon написано 04.04.2018 13:28

Kisa_AG
что бы там slon ни говорил про ренедеринг ущербными родными средствами Вегаса
А вы расскажите про ущербность, просто интересно ее найти и увидеть. Какие видны искажения, при каких обстоятельствах, на каких сценах, какими пресетами и кодеками ( варианты низкого битрейта, разумеется , не рассматриваются). Про ущербность рендеринга в вегасе процессором, т.к. nvenc я только пробовал ( работает), но на практике не использую.
Старые вегасовские кодеки мне не нравятся, они у меня стробят. HEVC с битрейтом 60-90 не стробит и качество нормальное.

ALEXX73
Member

Ответов: 44/51
ALEXX73 написано 04.04.2018 14:36

Это должно появится в окне выбора GPU?

Добавление от 04.04.2018 14:37:

Kisa_AG
вполне неплохо ускоряет даже встроенный Intel Graphics

Kisa_AG
Member

Ответов: 4737/6993
Фотоальбом: 2 фото
Kisa_AG написано 04.04.2018 15:51

ALEXX73
Это должно появится в окне выбора GPU?

Да.

ALEXX73
Member

Ответов: 45/52
ALEXX73 написано 04.04.2018 18:20

Kisa_AG
Да.
У меня кроме Off не выводится вариантов. Скрин не получается, при нажатии кнопки остаётся только одна строчка.

Kisa_AG
Member

Ответов: 4738/6994
Фотоальбом: 2 фото
Kisa_AG написано 05.04.2018 01:02

цитата:
ALEXX73:
Скрин не получается, при нажатии кнопки остаётся только одна строчка.

Не, ну если ты даже скриншот сделать не можешь, то я умываю руки... Тут сделать ничего нельзя, сорри...

dmitry.
Member

Ответов: 88/1583
Откуда: Россия, Москва
dmitry. написано 05.04.2018 16:26

ALEXX73
при нажатии кнопки остаётся только одна строчка.
бывает ))
для скрина экрана достаточно нажать на клавишу print scrn (рядом с клавишей F12) и из буфера сбросить куда надо.

ALEXX73
Member

Ответов: 46/53
ALEXX73 написано 05.04.2018 23:33

Kisa_AG
Не, ну если ты даже скриншот сделать не можешь

Это можно посмотреть по моим предыдущим постам.
На самом деле, всегда через PRTSCR скрины делал. А тут, как-то настроил через яндекс диск. И, при нажатии PRTSCR, вторая строчка пропадает сразу.

Misha v.3
Member

Ответов: 922/924
Откуда: Австралия, Brisbane
Web-страница
Misha v.3 написано 12.04.2018 10:08

2 slon & Kisa_AG:
Будьте добры, скачайте архив с моим тестовым проектом отсюда (он меньше 300 MB), отрендерите Magix QS и NVENC (или как они там называются) в 1080-50p со средним битрейтом 20 Mbps и выложите куда-нить полученные файлы для меня? Хочу посмотреть что "анализатор" про них скажет.

Заранее спасибо

P.S. для тех, кому вдруг интересно, на HumbleBundle за $20 опять можно купить лицензионный Vegas Pro 14 Edit

[Исправлено: Misha v.3, 12.04.2018 11:50]

Страницы: 1 2 3 4 5 6 25 26 27 · далее

Поиск · Новая тема · Написать ответ
версия для печати